三星专用:UU彩票体验家庭影院的震撼感受 大气蓬勃(变形金刚4+3预告片)H265/1.3G/百度

56292
回复
2505380
查看
  [复制链接]
1#
来源:UU彩票体验视频下载 2014-5-30 00:38:54 回帖奖励 |阅读模式
三星专用:UU彩票体验家庭影院的震撼感受 大气蓬勃(变形金刚4+3预告片)H265/1.3G/百度
三星专用:UU彩票体验家庭影院的震撼感受 大气蓬勃(变形金刚4+3预告片)H265/1.3G/百度
三星专用:UU彩票体验家庭影院的震撼感受 大气蓬勃(变形金刚4+3预告片)H265/1.3G/百度
三星专用:UU彩票体验家庭影院的震撼感受 大气蓬勃(变形金刚4+3预告片)H265/1.3G/百度
三星专用:UU彩票体验家庭影院的震撼感受 大气蓬勃(变形金刚4+3预告片)H265/1.3G/百度
三星专用:UU彩票体验家庭影院的震撼感受 大气蓬勃(变形金刚4+3预告片)H265/1.3G/百度

[三星专用]大气蓬勃 感受UU彩票体验家庭影院的震撼(变形金刚4+3预告片)H265/1.3G/百度


General
ID                             : 0 (0x0)
Complete name                  : E:\UU彩票体验中国\UHD_ENT_Transformer_Quad.ts
Format                         : MPEG-TS
File size                      : 1.38 GiB
Duration                       : 3mn 51s
Overall bit rate mode          : Constant
Overall bit rate               : 51.4 Mbps

Video
ID                             : 257 (0x101)
Menu ID                        : 1 (0x1)
Format                         : HEVC
Format/Info                    : High Efficiency Video Coding
Codec ID                       : 36
Duration                       : 3mn 50s
Bit rate                       : 48.7 Mbps
Stream size                    : 1.31 GiB (94%)

Audio
ID                             : 258 (0x102)
Menu ID                        : 1 (0x1)
Format                         : AAC
Format/Info                    : Advanced Audio Codec
Format version                 : Version 4
Format profile                 : LC
Muxing mode                    : ADTS
Codec ID                       : 15
Duration                       : 3mn 50s
Bit rate mode                  : Constant
Bit rate                       : 126 Kbps
Channel(s)                     : 2 channels
Channel positions              : Front: L R
Sampling rate                  : 48.0 KHz
Compression mode               : Lossy
Stream size                    : 3.45 MiB (0%)

这个应该是 变形金刚4+3+2+1混搭的UU彩票体验演示片.

清晰度不错,无论是细节还是整体画面感,都很能代表UU彩票体验电影的顶级水准。

游客,如果您要查看本帖隐藏内容请回复
分享到:  QQ好友和群QQ好友和群
2#
2014-5-30 00:41:46
没想到我遇到个沙发了

点评

用爱奇艺万能播放器,可以出图像,  发表于 2015-12-17 09:18
需要安装MilkPlayer播放器才能播放,必须CPU高的才可流畅,或者三星S6手机 安装播放器也可以流畅  发表于 2015-6-23 17:54
多次下次测试,多台酷睿I7电脑测试,多种播放器测试,结果只有声音,没有图像,大家别下。  发表于 2015-6-23 17:45
TV应用下载
3#
2014-5-30 00:42:11
第一个 感谢分享  !UU彩票体验电影的顶级水准
4#
2014-5-30 00:42:41
都很能代表UU彩票体验电影的顶级水准!!看画面的确给力
5#
2014-5-30 00:43:56
看看呢,是不是哟
6#
2014-5-30 00:54:42
谢谢分享,下来看看
7#
2014-5-30 01:07:36
非常感谢分享!!!!!
8#
2014-5-30 01:22:00
变形金刚
9#
2014-5-30 01:37:08
嘿嘿嘿嘿嘿嘿嘿嘿嘿嘿嘿
10#
2014-5-30 02:03:33
谢谢分享。

点评

只有声音没有图像!  发表于 2014-7-6 23:19
您需要登录后才可以回帖 登录 | 注册